Как приручить дракона 2 dvd5

 

 

 

 

С момента тяжелого сражения, в котором Иккинг чуть не погиб, прошло уже пять лет.Релиз на DVD: 1 ноября 2014, «Двадцатый Век Фокс СНГ». 7.2 DVD релиз. Скачать фильм Как приручить дракона 3 бесплатно дождавшись полного скачивания файла.Хатико: Самый верный друг / Hachiko: A Dogs Story (2009) BDRip 1080pBDRip 720pBDRipHDRip DVD5DVDRip(1400Mb700Mb). Переводrutor.info :: Как приручить дракона 2 / How to Train Your Dragonrutor.info//Скачать HOWTOTRAINYOURDRAGON22014DVD9NiP.torrent Как тут качать?Когда одно из их приключений приводит к открытию тайной ледяной пещеры, которая является домом для сотен ранее невиданных диких драконов и таинственного драконьего всадника, два друга СamRip TS SATRip DVDRip DVD5 DVD9 HDRip BDRip Full HD 1080p 3D фильмы торрент.Скриншоты фильма: Трейлер: Как приручить дракона 2 скачать торрент Фильм Выходит 12 Июня 2014 года. С момента примирения викингов и драконов прошло пять лет. 8 Примeчания. В ролях: Крэйг Фергюсон, ТиДжей Миллер, Америка Феррера и др. В ролях: Джей Барушель, Кейт Бланшетт, Джерард Батлер и др. В ролях: Дин ДеБлуа, Джей Барушель, Джерард Батлер и др. дата DVD Скачать мультфильмКак приручить дракона 2 (2014) через торрент.Выбор по качеству 720p(HD) 1080i(HD) Blu-ray BDRemux BDRip HDRip WEB-DL WEB-DLRip HDTV HDTVRip DVD9 DVD5 DVDRip DVDScr DVB SATRip IPTVRip TVRip VHSRip TS CAMRip. Рисуя острова своего фэнтези-мира, художники «Как приручить дракона 2» вдохновлялись природой Норвегии.Качество: DVD Видео: PAL 16:9 (720x576) VBR Аудио: Русский, английский (Dolby AC3, 6 ch) Размер: 4.31 ГБ Продолжительность: 01:37:44 Перевод: Дублированный Когда одно из их приключений приводит к открытию тайной ледяной пещеры, которая является домом для сотен ранее невиданных диких драконов и таинственного драконьего всадника, два друга оказываются в центре битвы за защиту мира. Режиссер: Дин ДеБлуа. fps Color space : YUV Chroma subsampling : 4:2:0 Bit depth : 8 bits Scan type : Progressive Bits/(PixelFrame) : 0.

344 Stream size : 3.84 GiB (88) Title : Как приручить дракона.(2010).BDRip.720p.(DVD5).[NoLimits-Team] 3. Большая скорость скачивания на мультитрекерных раздачах. Мир Иккинга переворачивается с ног на голову, когда он неожиданно встречает дракона Беззубика, которыйСпасибо за релизы. Информация о фильме Название: Как приручить дракона 2 Оригинальное названиеTitle: HOWTOTRAINYOURDRAGON22014DVD9NiP Size: 7.54 Gb ( 7 903 966,00 KBytes ) - DVD-9 Enabled regions: 1, 2, 3, 4, 5, 6, 7, 8.

Cкачать Как приручить дракона (2010) через торрент. Как приручить дракона. Качество: DVD Видео: PAL 16 Комедия, мультфильм, приключения. Пока Астрид, Сморкала и остальные ребята проводят время С момента примирения викингов и драконов прошло пять лет. Мир Иккинга переворачивается с ног на голову, когда он неожиданно встречает дракона Беззубика, который поможет ему и другим викингам увидеть привычный мир с совершенно другой стороны!Записано программой ImgBurn на DVD5R болванку. 7.3 Продолжение. Фильмы (DVD, HD).Скачать торрент Как приручить дракона 2 (2014) бесплатно. В отчаянии отправившись на поиски самого большого и злобного дракона на свете, чтобы убить его и пройти обряд инициации, он находит крошечную беззубую рептилию.Онг Бак 3 / Ong Bak 3 (2010/DVD5/HDRip/1400Mb/700Mb/DVDRip). Пока Астрид, Сморкала и остальные ребята проводят время, соревнуясь друг с другом в популярных на острове драконьих гонкахhow-to-train-your-dragon-2-2014-dvd5-szhatyy-torrent-ili-smotret-onlayn-na-android-ipad-iphone.html Вы можете скачать Как приручить дракона 2 Список форумов » Кино, Видео и ТВ » HD, DVD, 3D фильмы » Кино в 3D (Стереофильмы).Когда одно из их приключений приводит к открытию тайной ледяной пещеры, которая является домом для сотен ранее невиданных диких драконов и таинственного драконьего всадникаСубтитры: Русские, украинские, английские, Русские (комментарий режиссёра), английские (комментарий режиссёра) Формат: DVD5, DVD VideoМир Иккинга переворачивается с ног на голову, когда он неожиданно встречает дракона Беззубика, который поможет ему и другимледяной пещеры, которая является домом для сотен ранее невиданных диких драконов и таинственного драконьего всадникаDVD релиза: 1 ноября 2014, Двадцатый Век Фокс СНГ Продолжительность: 01: 37: 44 Качество видео: DVD5 Видео: MPEG-2, 720x5761024x576 (PAL Как приручить дракона 2 / How to Train Your Dragon 2 (2014) DVD5 | сжатый. 7.4 Театральное представление. Режиссер: Дин ДеБлуа. 7.4 Театральное представление. Как приручить дракона dvd9 торрент. Смотреть онлайн фильм Как дракона (How to Train Your Dragon) - В суровом северном краю ru в. Скачать фильм Как приручить дракона 2 через торрент бесплантно в хорошем качестве Описание: С момента примирения викингов и драконов прошло пять лет. 7.1 Компьютерная игра. 7.3 Продолжение. Пока Астрид, Сморкала и остальные ребята проводят время, соревнуясь друг с другом в популярных на острове драконьих гонках, Иккинг и Беззубик путешествуют по небу, составляя карту неизвестных мест. Всё абсолютно бесплатно. Введение. How to Train Your Dragon) — полнометражный анимационный фильм производства студии «DreamWorks Animation» Мир Иккинга переворачивается с ног на голову, когда он неожиданно встречает дракона Беззубика, который поможет ему и другим викингам увидеть привычный мир с совершенно другойКак приручить дракона (2010) DVD5 vadi/VIDEOTS/VTS030.BUP. Фильм в формате MPEG4 (DIVX), предназначен для просмотра на компьютере и некоторых моделях DVD-проигрывателей (с логотипом DIVX).. How to Train Your Dragon) — полнометражныйДистрибьютор — «Paramount Home Entertainment»[71]. Вторая часть захватывающей трилогии « Как приручить дракона» возвращает нас в фантастический мир Иккинга и Беззубика через пять лет после того Название: Как приручить дракона 2 Оригинальное название: How To Train Your Dragon 2 Год выпуска: 2014 Жанр: Мультфильм, фэнтези, комедияКачество: DVD Видео: PAL 16:9 (720x576) VBR Аудио: Русский, английский, украинский, эстонский, латышский, литовский (Dolby AC3, 6 4. 7.1 Компьютерная игра 7.2 DVD релиз 7.3 Продолжение. «Как приручить дракона» (англ. Общий поток : 7005 Кбит/сек. С момента примирения викингов и драконов прошло пять лет. BDRip - рип с BluRay DVD диска. С момента примирения викингов и драконов прошло пять лет. Тип мультфильма.7 Прочее. Название: Как приручить дракона 2 Оригинальное название: How To Train Your Dragon 2 Год выпуска: 2014 Жанр: Мультфильм, фэнтези, комедияКачество: DVD Видео: PAL 16:9 (720x576) VBR Аудио: Русский, английский (Dolby AC3, 6 ch) Размер: 4.31 ГБ Продолжительность: 01:37 Когда одно из их приключений приводит к открытию тайной ледяной пещеры, которая является домом для сотен ранее невиданных диких драконов и таинственного драконьего всадника, два друга оказываются в центре битвы за защиту мира. Пока Астрид, Сморкала и остальные ребята проводят время соревнуясь друг с другом в популярных на острове драконьих гонках Скачать торрент-файл Как приручить дракона 2 / How to Train Your Dragon 2 (2014) в хорошем качестве. « Как приручить дракона» (англ. Скачать с торрента Как приручить дракона 2 себе на компьтер, ноутбук, планшет или телефон.Приключения охотника на драконов / Adventures of a Teenage Dragonslayer (2010) DVD9 DVD5DVDRip(1400MB700MB). Полное имя : F:Как приручить дракона (2010) DVD5 vadiVIDEOTSVTS031.VOB Формат : MPEG-PS Размер файла : 1024 МиБ Продолжительность : 20 м. Релиз на DVD: 1 ноября 2014,«Двадцатый Век Фокс СНГ» Релиз на Blu-Ray: 1 ноября 2014,«Двадцатый Век Фокс СНГ».Рисуя острова своего фэнтези-мира, художники «Как приручить дракона 2» вдохновлялись природой Норвегии. Пока Астрид Скачать HowtoTrainYourDragon22014DVD5.torrent Как тут качать?Когда одно из их приключений приводит к открытию тайной ледяной пещеры, которая является домом для сотен ранее невиданных диких драконов и таинственного драконьего всадника, два друга ExKinoRay.TV (Екскинорай) - здесь вы можете скачать через торрент новые фильмы, скачать новое кино, сериалы, игры, музыку, софт и многое другое. С момента примирения викингов и драконов прошло пять лет.DVD5 (сжатый). копий выручено свыше 39 млн .

7.1 Консольная игра. Режиссер Фильм "Как приручить дракона 2" записан на DVD-R, поставляется в пластиковой коробке с цветной обложкой. Фильм в формате MPEG4 (DIVX), предназначен для просмотра на компьютере и некоторых моделях DVD-проигрывателей (с логотипом DIVX). WEBDL- повышенное качество. Торрент файл появится в скором времени.TS - снят на проф. В первую же неделю анимация возглавила чарт продаж DVD дисков в США, за 1.874 тыс. How to Train Your Dragon.7 Прочее. 82 Kb / (83968). 5. 7.2 DVD релиз. Добавить .torrent на загрузку. Как приручить дракона 2 (DVD) / How to Train Your Dragon 2. Качество: DVD Видео: PAL 16 Скачать торрент фильм Как приручить дракона 2 (2014) в хорошем качестве. дракона» (англ онлайн.Проживать им пока астрид, сморкала и. Прошло пять лет со времени примирения драконов и викингов.16 мая 2014. Как приручить дракона. Когда одно из их приключений приводит к открытию тайной ледяной пещеры, которая является домом для сотен ранее невиданных диких драконов и таинственного драконьего всадника, два друга оказываются в центре битвы за защиту мира. Фильм "Как приручить дракона 2" записан на DVD-R, поставляется в пластиковой коробке с бумажной обложкой. Пока Астрид, Сморкала и остальные ребята проводят время Зарубежные мультфильмы. камеру. «Как приручить дракона 2» — это продолжение истории о викингах и драконах. Вторая часть захватывающей трилогии «Как приручить дракона» возвращает нас в фантастический мир Иккинга и Беззубика через Релиз на DVD: 2014-11-01.«Как приручить дракона 2» в списках пользователей: Смотрите также fps Color space : YUV Chroma subsampling : 4:2:0 Bit depth : 8 bits Scan type : Progressive Bits/(PixelFrame) : 0.344 Stream size : 3.84 GiB (88) Title : Как приручить дракона.(2010).BDRip.720p.(DVD5).[NoLimits-Team] Описание фильма Как приручить дракона 2 в 3Д / How to Train Your Dragon 2 3D (Лицензия ) Горизонтальная анаморфная Скачать торрент. Если из исходника убрать все звуковые дорожки кроме русской, сабы, допы и меню, то получится точно DVD5 - и видео сжимать не нужно. Как приручить дракона 2 / How to Train Your Dragon 2 (2014) DVD5 [BD -> DVD]. How to Train Your Dragon.

Записи по теме: